Make Home|Add to Favorites
 
 
Solisearch.net » Documentaries » Channel 4 - Dispatches: Britains Defence Squeeze (2015)


http://i67.fastpic.ru/big/2015/0320/21/9fd535fc4a7add28fb0e4a3a5345b821.jpg
Channel 4 - Dispatches: Britains Defence Squeeze (2015)
HDTV | 1280x720 | .MP4/AVC @ 3049 Kbps | 27mn 14s | Audio: English AAC 158 kbps, 2 channels | Subs: None | 626 MiB
Genre: Documentary

"With reduced ability to monitor Russian submarines off the coast and dangers from terrorist groups such as Islamic State, Morland Sanders considers whether, in the light of significant cuts to the defence budget, the nation is able to adequately protect itself from a range of new threats. And with a top-heavy military and billions overspent on equipment, the programme also asks if taxpayers are getting value for money from the MoD."

"Channel 4 - Dispatches: Britains Defence Squeeze (2015)"

HI-SPEED DOWNLOAD
Free 300 GB with Full DSL-Broadband Speed!




http://i67.fastpic.ru/big/2015/0320/21/9fd535fc4a7add28fb0e4a3a5345b821.jpg
Channel 4 - Dispatches: Britains Defence Squeeze (2015)
HDTV | 1280x720 | .MP4/AVC @ 3049 Kbps | 27mn 14s | Audio: English AAC 158 kbps, 2 channels | Subs: None | 626 MiB
Genre: Documentary

"With reduced ability to monitor Russian submarines off the coast and dangers from terrorist groups such as Islamic State, Morland Sanders considers whether, in the light of significant cuts to the defence budget, the nation is able to adequately protect itself from a range of new threats. And with a top-heavy military and billions overspent on equipment, the programme also asks if taxpayers are getting value for money from the MoD."

General
Complete name : Ch4.Dispatches.Britains.Defence.Squeeze.mp4
Format : MPEG-4
Format profile : Base Media
Codec ID : isom
File size : 626 MiB
Duration : 27mn 14s
Overall bit rate mode : Variable
Overall bit rate : 3 211 Kbps

Video
ID : 1
Format : AVC
Format/Info : Advanced Video Codec
Format profile : [email protected]
Format settings, CABAC : No
Format settings, ReFrames : 1 frame
Format settings, GOP : M=1, N=12
Codec ID : avc1
Codec ID/Info : Advanced Video Coding
Duration : 27mn 14s
Bit rate : 3 049 Kbps
Width : 1 280 pixels
Height : 720 pixels
Display aspect ratio : 16:9
Frame rate mode : Constant
Frame rate : 25.000 fps
Color space : YUV
Chroma subsampling

: 4:2:0
Bit depth : 8 bits
Scan type : Progressive
Bits/(Pixel*Frame)

: 0.132
Stream size : 594 MiB (95%)
Encoded date : UTC 2015-03-17 15:09:01
Tagged date : UTC 2015-03-17 15:09:01

Audio
ID : 2
Format : AAC
Format/Info : Advanced Audio Codec
Format profile : LC
Codec ID : 40
Duration : 27mn 14s
Bit rate mode : Variable
Bit rate : 158 Kbps
Channel(s) : 2 channels
Channel positions: Front: L R
Sampling rate : 48.0 KHz
Compression mode : Lossy
Stream size : 30.8 MiB (5%)
Language : English
Encoded date : UTC 2015-03-17 15:09:01
Tagged date : UTC 2015-03-17 15:09:01

Screenshots:

http://i65.fastpic.ru/big/2015/0320/8e/e512d9f5eef9520ab9554524348cd78e.jpg

http://i68.fastpic.ru/big/2015/0320/53/23102d4d772f684fa2e18fba08b8b853.jpg

http://i67.fastpic.ru/big/2015/0320/02/e8a96e5157f528c35eb645ed61c14002.jpg

http://i66.fastpic.ru/big/2015/0320/d9/458b8fa761a9f57396cadf720d3e9dd9.jpg


DOWNLOAD LINKS:
Buy Premium From My Links To Get Resumable Support,Max Speed & Support Me


Links are Interchangeable - No Password - Single Extraction

P A S S W O R D    P R O T E C T E D ! 
PASSWORD WILL BE PUBLISHED HERE TOMORROW!
 PLEASE ADD PAGE TO YOUR FAVORITS

Free 300 GB with 10 GB High-Speed(No Password BACKUP)


Hide Your IP & Protect Your Privacy!
Get Your 15 Day Free Trial Now.


Tags: Channel, Dispatches, Britains, Defence, Squeeze

Channel 4 - Dispatches: Britains Defence Squeeze (2015) Fast Download via Rapidshare Upload Filehosting Megaupload, Channel 4 - Dispatches: Britains Defence Squeeze (2015) Torrents and Emule Download or anything related.
Information
Comment on the news site is possible only within (days) days from the date of publication.