Make Home|Add to Favorites
 
 
Solisearch.net » Documentaries » BBC - Dara and Ed's Great Big Adventure (2015)


http://i56.fastpic.ru/big/2015/0411/1c/3838ab1a698b43356cb929732d72dd1c.jpg
BBC - Dara and Ed's Great Big Adventure (2015)
HDTV | 1280x720 | .MP4/AVC @ 3022 Kbps | 3x~59min | Audio: English AAC 160 kbps, 2 channels | Subs: English | 3.92 GiB
Genre: Documentary

"Ed Byrne and Dara O Briain embark on a 4,000-mile pan-American adventure as they retrace a journey originally undertaken during the 1940s by three men from Detroit."

"BBC - Dara and Ed's Great Big Adventure (2015)"

HI-SPEED DOWNLOAD
Free 300 GB with Full DSL-Broadband Speed!




http://i56.fastpic.ru/big/2015/0411/1c/3838ab1a698b43356cb929732d72dd1c.jpg
BBC - Dara and Ed's Great Big Adventure (2015)
HDTV | 1280x720 | .MP4/AVC @ 3022 Kbps | 3x~59min | Audio: English AAC 160 kbps, 2 channels | Subs: English | 3.92 GiB
Genre: Documentary

"Ed Byrne and Dara O Briain embark on a 4,000-mile pan-American adventure as they retrace a journey originally undertaken during the 1940s by three men from Detroit."

Part 1: Arizona to Southern Mexico
They begin in Arizona before heading over the border into Mexico, where they see lucha libre wrestlers, visit a state-of-the-art coffee farm, and explore the remains of the ancient Zapotec civilisation of Monte Alban. They also witness the stream of migrants risking their lives to reach the US as they ride a freight train know as La Bestia.

Part 2: Guatemala to Nicaragua
Ed Byrne and Dara O Briain head into Guatemala as they continue their road trip, visiting Lake Atitlan to pay their respects to Mayan deity Maximon, exploring the ancient colonial city of Antigua and scaling the nearby active volcano Pacaya. In El Salvador, they learn first-hand about the gangs that make it one of the most violent countries in Central America, before they cross the border into Nicaragua, where they meet two Sandinista veterans who helped overthrow the Somoza regime in the 1970s.

Part 3: Costa Rica to Panama
Ed and Dara travel south through the Costa Rican mountains, where they learn how to herd cattle on horseback at a ranch before visiting an animal rehabilitation centre. They then explore the capital San Jose on election day before driving over the Cerro de la Muerte - which translates as the Mountain of Death. They then cross into Panama and experience the wonders of the world-famous canal linking the Atlantic to the Pacific, before heading to their final destination at the town of Yaviza, where the Pan-American Highway comes to an end.

General
Complete name : BBC.Dara.and.Eds.Great.Big.Adventure.1of3.Arizona.to.Southern.Mexico.mp4
Format
: MPEG-4
Format profile : Base Media
Codec ID
: isom
File size
: 1.32 GiB
Duration
: 59mn 22s
Overall bit rate mode : Variable
Overall bit rate : 3 184 Kbps

Video
ID : 1
Format
: AVC
Format/Info
: Advanced Video Codec
Format profile : [email protected]
Format settings, CABAC : No
Format settings, ReFrames : 1 frame
Format settings, GOP : M=1, N=12
Codec ID
: avc1
Codec ID/Info : Advanced Video Coding
Duration
: 59mn 22s
Bit rate
: 3 022 Kbps
Maximum bit rate : 12.7 Mbps
Width
: 1 280 pixels
Height
: 720 pixels
Display aspect ratio : 16:9
Frame rate mode : Variable
Frame rate
: 25.000 fps
Minimum frame rate

: 12.500 fps
Maximum frame rate

: 25.000 fps
Color space
: YUV
Chroma subsampling

: 4:2:0
Bit depth
: 8 bits
Scan type
: Progressive
Bits/(Pixel*Frame)

: 0.131
Stream size
: 1.25 GiB (95%)

Audio
ID : 2
Format
: AAC
Format/Info
: Advanced Audio Codec
Format profile : LC
Codec ID
: 40
Duration
: 59mn 22s
Bit rate mode : Variable
Bit rate
: 160 Kbps
Maximum bit rate : 233 Kbps
Channel(s)
: 2 channels
Channel positions: Front: L R
Sampling rate : 48.0 KHz
Compression mode : Lossy
Stream size
: 67.8 MiB (5%)
Language
: English
Encoded date : UTC 2015-04-08 18:58:43
Tagged date
: UTC 2015-04-08 18:58:48

Text
ID : 3
Format
: Timed text
Codec ID
: tx3g
Duration
: 58mn 50s
Bit rate mode : Variable
Bit rate
: 109 bps
Stream size
: 46.9 KiB (0%)
Encoded date : UTC 2015-04-08 18:58:47
Tagged date

Screenshots:

http://i55.fastpic.ru/big/2015/0411/13/13fcb8d03a6ae0453c81dd87e79fd213.jpg

http://i60.fastpic.ru/big/2015/0411/44/c2365b570ab140c1f48f7ddb0afccf44.jpg

http://i56.fastpic.ru/big/2015/0411/24/964b9abe1de81c739c7e9367870bff24.jpg

http://i58.fastpic.ru/big/2015/0411/b9/07dca8b2d811f47350212e140acb12b9.jpg


DOWNLOAD LINKS:
Buy Premium To Support Me & Get Resumable Support & Max Speed

Rapidgator.net:
e15po.BBC.D.a.E.G.B.A.2015.part01.rar.html
e15po.BBC.D.a.E.G.B.A.2015.part02.rar.html
e15po.BBC.D.a.E.G.B.A.2015.part03.rar.html
e15po.BBC.D.a.E.G.B.A.2015.part04.rar.html
e15po.BBC.D.a.E.G.B.A.2015.part05.rar.html
e15po.BBC.D.a.E.G.B.A.2015.part06.rar.html
e15po.BBC.D.a.E.G.B.A.2015.part07.rar.html
e15po.BBC.D.a.E.G.B.A.2015.part08.rar.html
e15po.BBC.D.a.E.G.B.A.2015.part09.rar.html
e15po.BBC.D.a.E.G.B.A.2015.part10.rar.html

Uploadable.ch:
e15po.BBC.D.a.E.G.B.A.2015.part01.rar
e15po.BBC.D.a.E.G.B.A.2015.part02.rar
e15po.BBC.D.a.E.G.B.A.2015.part03.rar
e15po.BBC.D.a.E.G.B.A.2015.part04.rar
e15po.BBC.D.a.E.G.B.A.2015.part05.rar
e15po.BBC.D.a.E.G.B.A.2015.part06.rar
e15po.BBC.D.a.E.G.B.A.2015.part07.rar
e15po.BBC.D.a.E.G.B.A.2015.part08.rar
e15po.BBC.D.a.E.G.B.A.2015.part09.rar
e15po.BBC.D.a.E.G.B.A.2015.part10.rar

Turbobit.net:
e15po.BBC.D.a.E.G.B.A.2015.part01.rar.html
e15po.BBC.D.a.E.G.B.A.2015.part02.rar.html
e15po.BBC.D.a.E.G.B.A.2015.part03.rar.html
e15po.BBC.D.a.E.G.B.A.2015.part04.rar.html
e15po.BBC.D.a.E.G.B.A.2015.part05.rar.html
e15po.BBC.D.a.E.G.B.A.2015.part06.rar.html
e15po.BBC.D.a.E.G.B.A.2015.part07.rar.html
e15po.BBC.D.a.E.G.B.A.2015.part08.rar.html
e15po.BBC.D.a.E.G.B.A.2015.part09.rar.html
e15po.BBC.D.a.E.G.B.A.2015.part10.rar.html

Uploaded.net:
e15po.BBC.D.a.E.G.B.A.2015.part01.rar
e15po.BBC.D.a.E.G.B.A.2015.part02.rar
e15po.BBC.D.a.E.G.B.A.2015.part03.rar
e15po.BBC.D.a.E.G.B.A.2015.part04.rar
e15po.BBC.D.a.E.G.B.A.2015.part05.rar
e15po.BBC.D.a.E.G.B.A.2015.part06.rar
e15po.BBC.D.a.E.G.B.A.2015.part07.rar
e15po.BBC.D.a.E.G.B.A.2015.part08.rar
e15po.BBC.D.a.E.G.B.A.2015.part09.rar
e15po.BBC.D.a.E.G.B.A.2015.part10.rar

Links are Interchangeable - No Password - Single Extraction

P A S S W O R D    P R O T E C T E D ! 
PASSWORD WILL BE PUBLISHED HERE TOMORROW!
 PLEASE ADD PAGE TO YOUR FAVORITS

Free 300 GB with 10 GB High-Speed(No Password BACKUP)


Hide Your IP & Protect Your Privacy!
Get Your 15 Day Free Trial Now.


Tags: Dara, Great, Adventure

BBC - Dara and Ed's Great Big Adventure (2015) Fast Download via Rapidshare Upload Filehosting Megaupload, BBC - Dara and Ed's Great Big Adventure (2015) Torrents and Emule Download or anything related.
Information
Comment on the news site is possible only within (days) days from the date of publication.