Make Home|Add to Favorites
 
 
Solisearch.net » Musics » AOR - Return To L.A (2015) Digipack

http://i58.fastpic.ru/big/2015/0405/99/2d41a524550b3d91f8a25744aad1c599.jpg

AOR - Return To L.A (2015) Digipack
EAC Rip | FLAC: Image+Cue+Log | 394 Mb | MP3 CBR 320 kbps | 142 Mb | Scans | Time: 51:41
Genre: Rock, Melodic Rock, AOR | Label: FS Records (France) | Cat.№: FS14

"Already the 14th release from French producer/songwriter Frederic Slama and possibly one of the strongest releases so far. As usual with first class singers like Bob Harris (Axe), Jesse Damon, Paul Sabu, Tommy Funderburk & Erika. French composer Frédéric Slama, playing guitar as well keyboards continuously gathers an illustrious bunch of singers foremost to make his vision of classic AOR/Melodic Rock reality."

"AOR - Return To L.A (2015) Digipack"

HI-SPEED DOWNLOAD
Free 300 GB with Full DSL-Broadband Speed!



http://i58.fastpic.ru/big/2015/0405/99/2d41a524550b3d91f8a25744aad1c599.jpg

AOR - Return To L.A (2015) Digipack
EAC Rip | FLAC: Image+Cue+Log | 394 Mb | MP3 CBR 320 kbps | 142 Mb | Scans | Time: 51:41
Genre: Rock, Melodic Rock, AOR | Label: FS Records (France) | Cat.№: FS14

"Already the 14th release from French producer/songwriter Frederic Slama and possibly one of the strongest releases so far. As usual with first class singers like Bob Harris (Axe), Jesse Damon, Paul Sabu, Tommy Funderburk & Erika. French composer Frédéric Slama, playing guitar as well keyboards continuously gathers an illustrious bunch of singers foremost to make his vision of classic AOR/Melodic Rock reality."



Track Listing

01. Victim Of My Own Desire (04:58)
02. The Trail To Your Heart (04:41)
03. Dangerous To Know (04:48)
04. Angels Never Sleep (05:18)
05. Burning Rainbows (06:47)
06. The Sign Of Fire (04:49)
07. The Breaking Point (04:50)
08. 99 Percent Chance Of Loving You (05:07)
09. Love Remains The Same (04:54)
10. The Wisdom Of Eve (05:25)

Produced by Frédéric Slama, Tommy Denander & Paul Sabu

The Band

* Frédéric Slama - Guitars, Keyboards
* Tommy Denander (Radioactive, Paul Stanley, Alice Cooper) - All Instruments
* Paul Sabu (Only Child, Kidd Glove) - Lead & Backing Vocals
* Tommy Funderburk - Lead & Backing Vocals
* Jesse Damon - Lead & Backing Vocals
* Rick Riso - Lead & Backing Vocals
* Bob Harris (Axe) - Lead & Backing Vocals
* Erika Norberg - Lead & Backing Vocals
* Sarah & Fontaine - Lead & Backing Vocals
* Mélissa Fontaine - Lead & Backing Vocals
* Colin Rodgers - Guitars, Bass
* Pat Thern - Drums

Exact Audio Copy V1.0 beta 3 from 29. August 2011

EAC extraction logfile from 21. March 2015, 17:02

AOR / Return To L.A

Used drive : SlimtypeDVD A DS8A5SH Adapter: 0 ID: 0

Read mode : Secure
Utilize accurate stream : Yes
Defeat audio cache : Yes
Make use of C2 pointers : No

Read offset correction

: 6
Overread into Lead-In and Lead-Out : No
Fill up missing offset samples with silence : Yes
Delete leading and trailing silent blocks : No
Null samples used in CRC calculations : Yes
Used interface
: Installed external ASPI interface

Used output format : User Defined Encoder
Selected bitrate : 320 kBit/s
Quality : High
Add ID3 tag : No
Command line compressor : C:\Program Files (x86)\Exact Audio Copy\Flac\flac.exe
Additional command line options : -V -8 -T "Date=%year%" -T "Genre=%genre%" %source%

TOC of the extracted CD Track | Start | Length | Start sector | End sector
-----------1 | 0:00.00 | 4:58.11 | 0 | 22360 2 | 4:58.11 | 4:41.39 | 22361 | 43474 3 | 9:39.50 | 4:47.71 | 43475 | 65070 4 | 14:27.46 | 5:18.14 | 65071 | 88934 5 | 19:45.60 | 6:47.22 | 88935 | 119481 6 | 26:33.07 | 4:49.57 | 119482 | 141213 7 | 31:22.64 | 4:50.19 | 141214 | 162982 8 | 36:13.08 | 5:07.03 | 162983 | 186010 9 | 41:20.11 | 4:54.44 | 186011 | 208104
10 | 46:14.55 | 5:25.69 | 208105 | 232548

Range status and errors

Selected range Filename D:\My Music\AOR - 2015 Return To LA\AOR - Return To LA.wav Peak level 100.0 %
Extraction speed 1.9 X
Range quality 100.0 %
Test CRC F920A058
Copy CRC F920A058
Copy OK

No errors occurred


AccurateRip summary

Track 1 not present in database
Track 2 not present in database
Track 3 not present in database
Track 4 not present in database
Track 5 not present in database
Track 6 not present in database
Track 7 not present in database
Track 8 not present in database
Track 9 not present in database
Track 10 not present in database

None of the tracks are present in the AccurateRip database

End of status report

==== Log checksum AD4E714A800A0F408782ADD71228900145587ABD1A0425D89CA37505A4451E38 ====

Many thanks to the original uploader: kolushew
DOWNLOAD LINKS:
Buy Premium To Support Me & Get Resumable Support & Max Speed


Links are Interchangeable - No Password - Single Extraction

P A S S W O R D    P R O T E C T E D ! 
PASSWORD WILL BE PUBLISHED HERE TOMORROW!
 PLEASE ADD PAGE TO YOUR FAVORITS

Free 300 GB with 10 GB High-Speed(No Password BACKUP)


Hide Your IP & Protect Your Privacy!
Get Your 15 Day Free Trial Now.


Tags: Return, Digipack

AOR - Return To L.A (2015) Digipack Fast Download via Rapidshare Upload Filehosting Megaupload, AOR - Return To L.A (2015) Digipack Torrents and Emule Download or anything related.
Information
Comment on the news site is possible only within (days) days from the date of publication.