Make Home|Add to Favorites
 
 
Solisearch.net » Musics » Porcupine Tree - Fear Of A Blank Planet (2007) (HQCD + DVDA)

http://i57.fastpic.ru/big/2015/0412/b5/f0076c6302a093a4fb2a2163ef4550b5.jpg

Porcupine Tree - Fear Of A Blank Planet (2007) (HQCD + DVDA)
DVD9 | ISO | MLP 24bit-48kHz 5.1; LPCM 24bit-48kHz 2.0; DTS 5.1 | 7500MB
1CD | Flac + Cue + Log | 335Mb
WHD IEZP-58 | rel: 2008 | covers

Porcupine Tree makes a triumphant return to experimental, non-linear style with 2007's Fear of a Blank Planet. Maybe Steve Wilson was afraid that the comparatively poppy Deadwing and In Absentia were edging too close to the mainstream, because he seems far less concerned with overtly accessible songwriting on Blank Planet. Even still, the cerebral, atmospheric sound on this album remains enormously compelling from almost the first moment.

"Porcupine Tree - Fear Of A Blank Planet (2007) (HQCD + DVDA)"

HI-SPEED DOWNLOAD
Free 300 GB with Full DSL-Broadband Speed!



http://i57.fastpic.ru/big/2015/0412/b5/f0076c6302a093a4fb2a2163ef4550b5.jpg

Porcupine Tree - Fear Of A Blank Planet (2007) (HQCD + DVDA)
DVD9 | ISO | MLP 24bit-48kHz 5.1; LPCM 24bit-48kHz 2.0; DTS 5.1 | 7500MB
1CD | Flac + Cue + Log | 335Mb
WHD IEZP-58 | rel: 2008 | covers

Porcupine Tree makes a triumphant return to experimental, non-linear style with 2007's Fear of a Blank Planet. Maybe Steve Wilson was afraid that the comparatively poppy Deadwing and In Absentia were edging too close to the mainstream, because he seems far less concerned with overtly accessible songwriting on Blank Planet. Even still, the cerebral, atmospheric sound on this album remains enormously compelling from almost the first moment.
While there is no "radio single" on the disc -- certainly nothing with a conventional pop arc like Lightbulb Sun or "Trains" -- most songs transcend their complex structure and feel as provocative as any traditional rock tune. The aptly named "Sentimental," in particular, features Wilson's trademark lush arrangement with layers of vocals, piano, ambient synths, electric guitar, acoustic guitar, live drums and sampled drums -- but cutting through its tightly contained mosaic is an expertly constructed chord progression that evokes a desperate sense of tension and longing, developing incredible emotional momentum as the track progresses.
Blank Planet sounds like Wilson spent about half of his studio time on the guitar; it's full of buzzy, meticulously distorted solos that you can easily picture him folding into the prototypical Porcupine Tree amalgamation of drum machine, organ, and synthesizers during many long hours in front of the sound board. The quiet, English restraint with which Wilson croons seems to have saved his voice from the decay that so many male singers experience over a twenty year career, and lucky for us (and for him), the style still works perfectly with Porcupine Tree's sound. As a vocalist, he has an amazing capacity for juxtaposing cold, haunting moments against evisceratingly passionate ones, mostly thanks to the control he exerts over his instrument. Wilson's clear, boy's choir timbre sounds like a torrent of frenzy and hunger when he breaks free of it and explores the limits of his vox on tracks like "Sleep Together." His sleepy, melodic approach also has the benefit of ensuring that his poetic lyrics, which run the gamut from acerbic social criticisms to wrenching personal narratives, are always perfectly discernible. Though it's only six tracks long, each of the songs on Blank Planet is exquisitely crafted, even the 17-minute long "Anesthetize." Wilson has a great sense of flow, leading mournful, ambient ballads into graceful crescendos, and over long interludes that sway blissfully throughout rises and falls, only occasionally losing themselves to moments of plodding or meandering. At roughly 51 minutes, Fear of a Blank Planet is short by Porcupine Tree standards, but by measure of quality rather than quantity, it's one of the most substantial prog albums to come out in years.

Track listing
CD & DVD-A
1. Fear of a Blank Planet (7:28)
2. My Ashes (5:07)
3. Anesthetize (17:42)
4. Sentimental (5:26)
5. Way Out of Here (7:37)
6. Sleep Together (7:28)
DVD Audio bonus:
7. Nil recurring (5.1 only)
8. Normal (5.1 only)
9. Cheating the Polygraph (5.1 only)
10 What happens Now? (5.1 only)
Video material:
1. Blank planet - short film
2. Fear Of A Blank Planet - uncensored promo video
3. Anesthetize - live film

Personnel
- Steven Wilson / vocals, guitar, piano
- Richard Barbieri / keyboards, synthesizers
- Colin Edwin / bass guitar
- Gavin Harrison / drums & percussion
Guest appearances:
- Alex Lifeson / guitar solo (3)
- Robert Fripp / soundscapes (5)
- John Wesley / backing vocals

Exact Audio Copy V0.99 prebeta 5 from 4. May 2009

Archivo Log de extracciones desde 6. Diciembre 2014, 20:48

Porcupine Tree / Fear of a Blank Planet - Japan (IEZP-58)

Usar unidad : HL-DT-STDVDRAM GH22NS70 Adapter: 0 ID: 0

Modo de Lectura : Seguro
Utilizar Corriente Exacta : Sí
Descartar Audio caché : Sí
Utilizar los punteros C2 : No

Corrección de Desplazamiento de Lectura : 667
Sobreleer tanto en Lead-In como en Lead-Out : No
Rellenar las muestras faltantes con silencios : Sí
Eliminar silencios inicial y final : No
Se han usado muestras nulas en los cálculos CRC : Sí
Interfaz usada
: Interfaz propio de Win32 para Windowns NT y 2000

Formato de Salida utilizado : Compresor definido por el usuario
Bitrate seleccionado

: 32 kBit/s
Calidad
: Alta
AƄadir Etiqueta ID3

: No
Compresor de linea de comandos : C:\Program Files (x86)\Exact Audio Copy\Flac\flac.exe
Opciones adicionales en línea de comandos : -6 -V %s

TOC del CD extraido Pista | Inicio | Duración | Sector inicial | Sector final
---------------1 | 0:00.00 | 7:28.16 | 0 | 33615 2 | 7:28.16 | 5:07.12 | 33616 | 56652 3 | 12:35.28 | 17:42.34 | 56653 | 136336 4 | 30:17.62 | 5:26.71 | 136337 | 160857 5 | 35:44.58 | 7:37.57 | 160858 | 195189 6 | 43:22.40 | 7:28.44 | 195190 | 228833

Gama de estados y errores

Seleccionar gama Nombre de Archivo E:\Música\EAC\Porcupine Tree\Fear Of A Blank Planet\Porcupine Tree - Fear of a Blank Planet - Japan (IEZP-58).wav Nivel Pico 100.0 %
Gama de Calidad 100.0 %
Test CRC 80823DA0
Copiar CRC 80823DA0
Copia OK

Sin Errores


Resumen AccurateRip

Pista 1 no se puede verificar como preciso (confianza 200) [564C3A69], AccurateRip devuelto [E03562A2]
Pista 2 no se puede verificar como preciso (confianza 200) [69D3A7CC], AccurateRip devuelto [4CE37BE3]
Pista 3 no se puede verificar como preciso (confianza 200) [D590C917], AccurateRip devuelto 884FA1F
Pista 4 no se puede verificar como preciso (confianza 200) [621000D0], AccurateRip devuelto [EA28615D]
Pista 5 no se puede verificar como preciso (confianza 200) [D6C205B9], AccurateRip devuelto [2A42006B]
Pista 6 no se puede verificar como preciso (confianza 200) [E2E08955], AccurateRip devuelto [4E75FEF9]

No se verificará ninguna pista como precisa
Puede que tengas una edición diferente a la(s) de la base de datos

Final del Informe

[CUETools log; Date: 2015.04.09. 23:10:51; Version: 2.1.4]
[CTDB TOCID: 1t3TbmMIC7R3oZTgUiICaqsZFas-] found.
Track | CTDB Status
1 | ( 8/227) Accurately ripped
2 | ( 8/227) Accurately ripped
3 | ( 8/227) Accurately ripped
4 | ( 8/227) Accurately ripped
5 | ( 8/227) Accurately ripped
6 | (226/227) Accurately ripped
[AccurateRip ID: 000c61e0-00428680-4a0beb06] found.
Track [ CRC | V2 ] Status
01 [564c3a69|fac49f43] (000+002/534) Accurately ripped
02 [69d3a7cc|8cff0233] (000+002/538) Accurately ripped
03 [d590c917|8ad9a9e7] (000+002/528) Accurately ripped
04 [621000d0|6fe2403a] (000+002/534) Accurately ripped
05 [d6c205b9|2e52256b] (000+002/528) Accurately ripped
06 [e2e08955|faf2e05f] (000+002/531) Accurately ripped
Offsetted by -1324:
01 [029a60ef] (005/534) Accurately ripped
02 [8c485048] (005/538) Accurately ripped
03 [437e2c6e] (005/528) Accurately ripped
04 [5cc36c38] (005/534) Accurately ripped
05 [052046c9] (005/528) Accurately ripped
06 [8b651b06] (005/531) Accurately ripped
Offsetted by -646:
01 [5c856028] (003/534) Accurately ripped
02 [e3bcb69e] (003/538) Accurately ripped
03 [7075098d] (003/528) Accurately ripped
04 [c98b0296] (003/534) Accurately ripped
05 [6d7b569c] (003/528) Accurately ripped
06 [01f92b31] (003/531) Accurately ripped
Offsetted by -1618:
01 [f4ca3e6e] (002/534) Accurately ripped
02 [6759a27c] (000/538) No match (V2 was not tested)
03 [413854af] (000/528) No match (V2 was not tested)
04 [9f5a2e59] (000/534) No match (V2 was not tested)
05 [414743c6] (000/528) No match (V2 was not tested)
06 [942803da] (002/531) Accurately ripped
Offsetted by -1610:
01 [aadd75a3] (000/534) No match (V2 was not tested)
02 [8ba79d2c] (000/538) No match (V2 was not tested)
03 [722ae859] (000/528) No match
04 [dc599ed5] (000/534) No match
05 [88d03ebb] (000/528) No match
06 [9047f018] (000/531) No match
Offsetted by -1588:
01 [03824ab3] (013/534) Accurately ripped
02 [f105d9d2] (000/538) No match (V2 was not tested)
03 5a5da5c (000/528) No match (V2 was not tested)
04 [0807bff9] (000/534) No match (V2 was not tested)
05 [ff6a9426] (000/528) No match (V2 was not tested)
06 54f837d (013/531) Accurately ripped
Offsetted by -1550:
01 [4c57cd13] (000/534) No match (V2 was not tested)
02 [843ac661] (000/538) No match (V2 was not tested)
03 [af54e9ff] (000/528) No match (V2 was not tested)
04 [6ee18b06] (000/534) No match (V2 was not tested)
05 [d4ec4cde] (000/528) No match (V2 was not tested)
06 [62eedd7b] (000/531) No match (V2 was not tested)
Offsetted by -1544:
01 [590efe81] (006/534) Accurately ripped
02 [62ee84f8] (000/538) No match (V2 was not tested)
03 [949a87ad] (000/528) No match (V2 was not tested)
04 [4251e9e5] (000/534) No match (V2 was not tested)
05 dda2c43 (000/528) No match (V2 was not tested)
06 [4adbf749] (006/531) Accurately ripped
Offsetted by -1532:
01 [acebdcd7] (058/534) Accurately ripped
02 [58a43e46] (000/538) No match (V2 was not tested)
03 [3a97c0f8] (000/528) No match (V2 was not tested)
04 [596d884c] (000/534) No match (V2 was not tested)
05 [84c2c47b] (000/528) No match (V2 was not tested)
06 [d8452b03] (056/531) Accurately ripped
Offsetted by -1526:
01 [5c9efe79] (000/534) No match
02 [f64fe02a] (000/538) No match
03 [8a6b313e] (000/528) No match
04 [9b4bea21] (000/534) No match
05 [6bfba17c] (000/528) No match (V2 was not tested)
06 dc1a3c4 (000/531) No match
Offsetted by -1522:
01 [5d655f84] (000/534) No match
02 [2a203b77] (000/538) No match
03 [3f374544] (000/528) No match (V2 was not tested)
04 af5930d (000/534) No match
05 [082896cf] (000/528) No match
06 [df00bb5c] (000/531) No match
Offsetted by -1488:
01 [896636b5] (000/534) No match (V2 was not tested)
02 fcea091 (000/538) No match (V2 was not tested)
03 [e9e0040d] (000/528) No match (V2 was not tested)
04 [ed665eb4] (000/534) No match (V2 was not tested)
05 [49ce3538] (000/528) No match (V2 was not tested)
06 [fd2312e1] (002/531) Accurately ripped
Offsetted by -1434:
01 [d7ece1c6] (000/534) No match
02 [0ddcafbd] (000/538) No match
03 [7588fb99] (000/528) No match
04 [1fd93bd4] (000/534) No match (V2 was not tested)
05 [528e1f49] (000/528) No match
06 [32d92e33] (000/531) No match
Offsetted by -1346:
01 [efbee3a2] (000/534) No match
02 [2158a53f] (000/538) No match
03 [342dfdef] (000/528) No match
04 [44dee109] (000/534) No match
05 73b6900 (000/528) No match (V2 was not tested)
06 [d14765cf] (000/531) No match
Offsetted by -1258:
01 [d17051f1] (000/534) No match
02 [cc188ed4] (000/538) No match
03 [9b613164] (000/528) No match
04 [d9dd9249] (000/534) No match
05 [1ff80451] (000/528) No match
06 [e48fa526] (000/531) No match (V2 was not tested)
Offsetted by -1000:
01 [26f6ceb5] (000/534) No match (V2 was not tested)
02 [25b926b4] (000/538) No match (V2 was not tested)
03 [f438a20e] (000/528) No match (V2 was not tested)
04 [ee3663db] (000/534) No match (V2 was not tested)
05 [0fe48451] (000/528) No match (V2 was not tested)
06 [eff8a15e] (000/531) No match (V2 was not tested)
Offsetted by -898:
01 [f6d04316] (000/534) No match (V2 was not tested)
02 [13aaf4ca] (000/538) No match (V2 was not tested)
03 [7c6ca51d] (000/528) No match (V2 was not tested)
04 [c5e3bd95] (000/534) No match (V2 was not tested)
05 [ac60adeb] (000/528) No match (V2 was not tested)
06 [61d27e45] (002/531) Accurately ripped
Offsetted by -886:
01 [51c6730e] (000/534) No match (V2 was not tested)
02 [898eeb05] (000/538) No match (V2 was not tested)
03 [58f06855] (000/528) No match (V2 was not tested)
04 [9f807ed0] (000/534) No match (V2 was not tested)
05 [e185c4ee] (000/528) No match (V2 was not tested)
06 [e9ed89d2] (003/531) Accurately ripped
Offsetted by -868:
01 [a5255a44] (000/534) No match (V2 was not tested)
02 [8400efb7] (000/538) No match (V2 was not tested)
03 [f744603d] (000/528) No match (V2 was not tested)
04 [6a10a5d4] (000/534) No match (V2 was not tested)
05 f14762c (000/528) No match (V2 was not tested)
06 [4e75fef9] (200/531) Accurately ripped
Offsetted by -862:
01 [17c4ff86] (000/534) No match (V2 was not tested)
02 [35167523] (000/538) No match (V2 was not tested)
03 711f1c9 (000/528) No match (V2 was not tested)
04 [96362292] (000/534) No match (V2 was not tested)
05 [29fcb591] (000/528) No match (V2 was not tested)
06 [3442ed1b] (002/531) Accurately ripped

Track Peak [ CRC32 ] [W/O NULL]
-- 100,0 [80823DA0] [FFE5039F]
01 100,0 [D86CFD60] [FA2F5B56]
02 100,0 [86C26BAA] [8F3CD429]
03 100,0 [348D117A] 7F7E970
04 100,0 [AF015ACD] [A1D2A265]
05 100,0 [F5E91426] [971715D6]
06 100,0 [6610F06E] [C1F0EBFE]
DOWNLOAD LINKS:
Buy Premium To Support Me & Get Resumable Support & Max Speed


Links are Interchangeable - No Password - Single Extraction

P A S S W O R D    P R O T E C T E D ! 
PASSWORD WILL BE PUBLISHED HERE TOMORROW!
 PLEASE ADD PAGE TO YOUR FAVORITS

Free 300 GB with 10 GB High-Speed(No Password BACKUP)


Hide Your IP & Protect Your Privacy!
Get Your 15 Day Free Trial Now.


Tags: Porcupine, Tree, Fear, Blank, Planet, HQCD, DVDA

Porcupine Tree - Fear Of A Blank Planet (2007) (HQCD + DVDA) Fast Download via Rapidshare Upload Filehosting Megaupload, Porcupine Tree - Fear Of A Blank Planet (2007) (HQCD + DVDA) Torrents and Emule Download or anything related.
Information
Comment on the news site is possible only within (days) days from the date of publication.