Make Home|Add to Favorites
 
 
Solisearch.net » Tutorials » Andrew Holecek - Dream Sculpting


Andrew Holecek - Dream Sculpting

Andrew Holecek - Dream Sculpting
WEBRip | English | MP4 + MP3 + PDF Guides | 1280 x 720 | AVC ~975 Kbps | 25 fps
AAC | 160 Kbps | 48.0 KHz | 2 channels | ~7 hours | 4.21 GB
Genre: eLearning Video / Self Improvement
From Barely Lucid To Hyper Lucid - Discover The Master Blueprint To Turn Lucid Dreaming Into Your Strongest Ally In Accelerating Your Personal And Spiritual Evolution Join Andrew Holecek In This Six-Week Transformational Journey Into The Deepest Depths Of Your Mind Where You'll Uncover A Whole New World Of Possibilities That You Never Knew Existed


"Andrew Holecek - Dream Sculpting"

HI-SPEED DOWNLOAD
Free 300 GB with Full DSL-Broadband Speed!




This course is for you if you

1) Interested in the thrill of waking up in their dreams and having the time of their life in the privacy of their own mind.
2) Looking to make better use of the combined 50 hours a week the average person spends in slumber and turn part of it into a life-transforming experience.
3) Drawn to the concept of Lucid Dreaming as a vehicle for awakening or spiritual expansion.

Every human being on this planet sleeps and dreams.

Have you ever wondered what's going on when you sleep and dream?

What are those shadowy states of consciousness we all share?

Ones that we spend a third of our lives in?

Are they mere rest that serves no other purpose than rejuvenating your physical body?

What if there was more to the story?

What if those were the greatest missed opportunities of humankind?

Value: $1095
More Info:


also You can find other my useful:

Self Improvement-posts

General
Complete name : 10a Group Coaching Meditation Exercise.mp4
Format : MPEG-4
Format profile : Base Media
Codec ID : isom (isom/iso2/avc1/mp41)
File size : 69.8 MiB
Duration : 8 min 9 s
Overall bit rate mode : Variable
Overall bit rate : 1 197 kb/s
Writing application : Lavf55.33.100

Video
ID : 1
Format : AVC
Format/Info : Advanced Video Codec
Format profile : [email protected]
Format settings : CABAC / 5 Ref Frames
Format settings, CABAC : Yes
Format settings, RefFrames : 5 frames
Codec ID : avc1
Codec ID/Info : Advanced Video Coding
Duration : 8 min 9 s
Bit rate : 975 kb/s
Width : 1 280 pixels
Height : 720 pixels
Display aspect ratio : 16:9
Frame rate mode : Constant
Frame rate : 25.000 FPS
Color space : YUV
Chroma subsampling : 4:2:0
Bit depth : 8 bits
Scan type : Progressive
Bits/(Pixel*Frame) : 0.042
Stream size : 56.9 MiB (81%)
Writing library : x264 core 142
Encoding settings : cabac=1 / ref=5 / deblock=1:0:0 / analyse=0x3:0x113 / me=umh / subme=8 / psy=1 / psy_rd=1.00:0.00 / mixed_ref=1 / me_range=16 / chroma_me=1 / trellis=1 / 8x8dct=1 / cqm=0 / deadzone=21,11 / fast_pskip=1 / chroma_qp_offset=-2 / threads=3 / lookahead_threads=1 / sliced_threads=0 / nr=0 / decimate=1 / interlaced=0 / bluray_compat=0 / constrained_intra=0 / bframes=3 / b_pyramid=2 / b_adapt=2 / b_bias=0 / direct=3 / weightb=1 / open_gop=0 / weightp=2 / keyint=50 / keyint_min=5 / scenecut=40 / intra_refresh=0 / rc_lookahead=50 / rc=crf / mbtree=1 / crf=20.0 / qcomp=0.60 / qpmin=0 / qpmax=69 / qpstep=4 / vbv_maxrate=3000 / vbv_bufsize=12000 / crf_max=0.0 / nal_hrd=none / filler=0 / ip_ratio=1.40 / aq=1:1.00
Language : English
Tagged date : UTC 2016-11-15 05:48:27

Audio
ID : 2
Format : AAC
Format/Info : Advanced Audio Codec
Format profile : LC
Codec ID : mp4a-40-2
Duration : 8 min 9 s
Bit rate mode : Variable
Bit rate : 160 kb/s
Maximum bit rate : 3 000 kb/s
Channel(s) : 2 channels
Channel positions : Front: L R
Sampling rate : 48.0 kHz
Frame rate : 46.875 FPS (1024 SPF)
Compression mode : Lossy
Stream size : 9.33 MiB (13%)
Language : English
Default : Yes
Alternate group : 1
Tagged date : UTC 2016-11-15 05:48:27

Other #1
ID : 65536
Type : Hint
Format : RTP
Codec ID : rtp
Duration : 8 min 9 s
Encoded date : UTC 2016-11-15 05:48:27
Tagged date : UTC 2016-11-15 05:48:27

Other #2
ID : 65537
Type : Hint
Format : RTP
Codec ID : rtp
Duration : 8 min 9 s
Encoded date : UTC 2016-11-15 05:48:27
Tagged date : UTC 2016-11-15 05:48:27
Bit rate mode : VBR

Screenshots

Andrew Holecek - Dream Sculpting

Andrew Holecek - Dream Sculpting

Andrew Holecek - Dream Sculpting
DOWNLOAD
(Buy premium account for maximum speed and resuming ability)






P A S S W O R D    P R O T E C T E D ! 
PASSWORD WILL BE PUBLISHED HERE TOMORROW!
 PLEASE ADD PAGE TO YOUR FAVORITS

Free 300 GB with 10 GB High-Speed(No Password BACKUP)


Hide Your IP & Protect Your Privacy!
Get Your 15 Day Free Trial Now.


Tags: Andrew, Holecek, Dream, Sculpting

Andrew Holecek - Dream Sculpting Fast Download via Rapidshare Upload Filehosting Megaupload, Andrew Holecek - Dream Sculpting Torrents and Emule Download or anything related.
Information
Comment on the news site is possible only within (days) days from the date of publication.